Main Page Sitemap

Most popular

Design af gavekort

Føtex, møllergade 92- 96,- 5700 Svendborg find på kort, ved udstedelse af gavekort pålægges et gebyr.Slender stud white flash 549 DKK gavekort til kørekort 329 DKK 40, heartbeat stud 549 DKK 329 DKK 40, heartbeat EAR flash 699 DKK 419 DKK.Køb gavekort på


Read more

Nicehair dk rabatkode

Klik for at se rabatkode, fB2015DK3, brug denne Vuuh rabatkode og 2018 brit awards nominerede og vindere få 5 rabat på din bestilling hos!Ja vi gør meget ud af at vores medlemmer kun modtager de tilbud de er interesseret.Find din Bianco rabat nedenunder


Read more

Den mest populære gave til pige 8 år

Så kan den glade modtager selv vælge imellem vores mange produkter fra mærker af højeste kvalitet.Godt skrevet.oktober 2014.Sendes klokken.30 på.Sammen med din partner kan du bruge de konkrete redskaber, der giver jer den dybe følelsesmæssige connection, gode samtaler, færre konflikter og problemer, et


Read more

Mads vinding 4tet


A live jazz concert with some of Denmarks brightest jazz musicians.
Vinding has played with all of the legends of jazz, and is often mentioned as the musical heir av cables dk rabat of late NHØP.
A regular on the Danish jazz stage, he easily complements the others with cool and understated rhythm.
DR10 -0.08 dB -13.75 dB 6:24 04-Everyday I Have The Blues.
Everyday I Have The Blues (6:24).Over The Rainbow (8:12 personnel: Mads Vinding - b, margrete Grarup -.DR11 -0.08 dB -15.68 dB 9:01 02-Autumn send gavekort Leaves.Autumn Leaves (9:01).The mood is audibly lively, and the musicians clearly long to entertain as they invite the audience along on the journey.The pianist and composer Carsten Dahl takes the keys.DR10 -0.08 dB -12.42 dB 8:37 05-Blame It On My Youth.A little while later, three of the original players gathered for a memorable evening in the concert hall of Amager Bio.



Above all soars the unique voice of Margrete Grarup.
It featured a collaborative project spanning beautiful ballads and swinging jazz, completed by a handful of the most hard-working and skilled Danish jazz musicians.
Last year the record Walk With Me was released to great critical acclaim.
Blame It On My Youth (8:37).His play is, as always, playful and technically skilled.You Don't Know What Love Is (5:41).The bassist Mads Vinding ties the quartet together with his confident style.Niclas Campagnol plays the drums, a recent addition to the original group.She manages to balance force and delicacy and always retains a certain humility even when her powerful voice is at its most expressive.Carsten Dahl is a highly productive musicians, but his work never lacks quality instead, his piano is rich with experience.Love For Sale (13:59).DR11 -0.08 dB -14.55 dB 8:12 06-Over The Rainbow, number of tracks: 6, official DR value: DR11, samplerate: 44100.




Sitemap